<svg xmlns="http://www.w3.org/2000/svg"><defs><font horiz-adv-x="537"><font-face alphabetic="0" ascent="1018" descent="-276" panose-1="2 11 7 3 2 2 3 2 2 4"/><glyph glyph-name="space" horiz-adv-x="253" unicode="&#x20;"/><glyph d="M100 700H234V371L208 208H126L100 371V700ZM86 66Q86 101 108 121T166 142Q204 142 226 122T248 66Q248 31 226 10T166-11Q130-11 108 10T86 66Z" glyph-name="exclam" horiz-adv-x="294" unicode="&#x21;"/><glyph d="M90 700H204L168 484H90V700ZM238 700H352L316 484H238V700Z" glyph-name="quotedbl" horiz-adv-x="402" unicode="&#x26;&#x71;&#x75;&#x6f;&#x74;&#x3b;"/><glyph d="M289 205H200L164 51H57L93 205H19L41 302H116L141 408H69L91 505H164L199 649H305L271 505H360L395 649H501L467 505H539L514 408H444L419 302H488L464 205H396L360 51H253L289 205ZM223 302H312L337 408H248L223 302Z" glyph-name="numbersign" horiz-adv-x="567" unicode="&#x23;"/><glyph d="M238-13Q181-11 138-1T71 22L110 135Q128 124 160 114T238 100V305Q207 319 177 336T122 377 84 434 69 514Q69 600 114 647T238 709V800H342V713Q386 710 419 701T480 680L444 569Q427 577 401 585T342 597V410Q373 396 404 379T460 337 500 281 516 203Q516 111 470 60T342-7V-100H238V-13ZM386 188Q386 220 361 240T299 278V100Q343 105 364 128T386 188ZM199 525Q199 495 222 475T281 438V600Q234 598 217 577T199 525Z" glyph-name="dollar" horiz-adv-x="567" unicode="&#x24;"/><glyph d="M51 542Q51 587 64 619T100 672 155 702 226 712Q264 712 296 703T351 674 388 622 402 542Q401 495 388 463T352 410 296 381 226 372Q188 372 156 381T100 410 64 462 51 542ZM167 542Q167 456 226 456 257 456 270 474T285 542Q284 590 271 609T226 628Q195 628 181 609T167 542ZM457 171Q457 216 470 248T506 301 561 331 632 341Q670 341 702 332T757 303 794 251 808 171Q807 124 794 92T758 39 702 10 632 1Q594 1 562 10T506 39 470 91 457 171ZM573 171Q573 85 632 85 663 85 676 103T691 171Q690 219 677 238T632 257Q601 257 587 238T573 171ZM677 714 750 648 174-14 101 55 677 714Z" glyph-name="percent" horiz-adv-x="840" unicode="&#x25;"/><glyph d="M92 194Q92 232 104 266T139 331 193 387 260 433Q235 466 219 500T203 572Q203 597 212 622T242 668 296 701 376 714Q422 714 454 703T507 674 536 633 545 586Q545 545 516 501T417 415Q452 361 487 316T565 227Q588 252 606 289T639 366L733 316Q727 298 717 277T694 233 668 192 644 158Q676 129 700 113T749 82L680-14Q652-1 623 20T564 70Q528 37 474 12T341-14Q289-14 244 0T165 41 112 106 92 194ZM486 149Q435 202 393 254T320 354Q272 317 247 283T222 205Q222 154 259 125T358 96Q398 96 433 112T486 149ZM333 566Q333 524 369 476 408 501 425 523T443 565Q443 589 430 603T386 617Q359 617 346 603T333 566Z" glyph-name="ampersand" horiz-adv-x="814" unicode="&#x26;&#x61;&#x6d;&#x70;&#x3b;"/><glyph d="M90 700H204L168 484H90V700Z" glyph-name="quotesingle" horiz-adv-x="254" unicode="&#x26;&#x61;&#x70;&#x6f;&#x73;&#x3b;"/><glyph d="M227-220Q181-172 149-115T98 3 69 125 60 243Q60 298 69 359T98 481 150 602 230 712L314 658Q279 611 256 560T218 456 197 348 190 243Q190 195 197 141T219 34 258-71 316-164L227-220Z" glyph-name="parenleft" horiz-adv-x="327" unicode="&#x28;"/><glyph d="M97 712Q145 664 177 607T228 489 257 367 267 247Q266 194 257 133T228 11 176-110 100-220L11-164Q49-115 73-64T111 40 130 145 137 243Q136 297 129 350T106 457 68 561 13 658L97 712Z" glyph-name="parenright" horiz-adv-x="327" unicode="&#x29;"/><glyph d="M144 731 172 685 187 626 202 681 230 730 294 695 264 643 216 600 281 616H338V543H283L222 559 272 512 297 470 233 433 206 479 186 543 173 485 144 436 80 473 109 522 154 559 99 543H40V617H100L159 600 108 644 80 694 144 731Z" glyph-name="asterisk" horiz-adv-x="378" unicode="&#x2a;"/><glyph d="M43 394H205V563H322V394H485V282H322V111H205V282H43V394Z" glyph-name="plus" horiz-adv-x="527" unicode="&#x2b;"/><glyph d="M42 64Q42 98 64 118T120 138Q162 138 186 110T210 36Q210-9 196-41T162-95 118-129 75-148L37-94Q64-83 84-58T106-5Q83-8 63 9T42 64Z" glyph-name="comma" horiz-adv-x="252" unicode="&#x2c;"/><glyph d="M54 345H305V230H54V345Z" glyph-name="hyphen" horiz-adv-x="360" unicode="&#x2d;"/><glyph d="M42 66Q42 101 64 121T122 142Q160 142 182 122T204 66Q204 31 182 10T122-11Q86-11 64 10T42 66Z" glyph-name="period" horiz-adv-x="246" unicode="&#x2e;"/><glyph d="M333 712 431 668 74-140-24-94 333 712Z" glyph-name="slash" horiz-adv-x="408" unicode="&#x2f;"/><glyph d="M40 351Q40 535 103 624T284 714Q410 714 469 626T528 351Q528 166 465 76T283-14Q158-14 99 80T40 351ZM170 351Q170 229 196 163T284 96Q343 96 370 157T398 351Q398 472 372 538T283 604Q223 604 197 542T170 351Z" glyph-name="zero" horiz-adv-x="567" unicode="&#x30;"/><glyph d="M101 110H240V505L255 573 207 514 118 453 63 528 291 712H364V110H500V0H101V110Z" glyph-name="one" horiz-adv-x="567" unicode="&#x31;"/><glyph d="M475 529Q475 478 457 426T410 324 347 228 279 142L226 101V96L298 110H490V0H69V67Q93 92 123 125T183 196 243 274 295 354 331 433 345 505Q345 546 322 572T247 599Q215 599 182 586T125 551L73 643Q112 675 161 694T278 714Q321 714 357 702T419 667 460 610 475 529Z" glyph-name="two" horiz-adv-x="567" unicode="&#x32;"/><glyph d="M241 96Q303 96 335 129T368 209Q368 266 334 293T227 320H155V389L276 554 333 599 254 590H86V700H468V629L327 440 283 413V408L325 414Q360 411 391 398T446 361 484 300 498 217Q498 158 479 115T425 43 344 0 245-14Q201-14 154-6T78 17L113 125Q139 112 170 104T241 96Z" glyph-name="three" horiz-adv-x="567" unicode="&#x33;"/><glyph d="M553 195H443V0H322V195H19V269L336 705H443V299H553V195ZM322 452 331 536H327L293 464 189 329 139 291 203 299H322V452Z" glyph-name="four" horiz-adv-x="567" unicode="&#x34;"/><glyph d="M220 101Q286 101 321 133T356 221Q356 281 315 309T198 337L119 334V700H463V578H231V443L272 447Q321 445 360 429T428 385 471 316 486 225Q486 166 466 121T411 46 327 1 222-14Q177-14 137-7T68 14L103 122Q126 112 153 107T220 101Z" glyph-name="five" horiz-adv-x="567" unicode="&#x35;"/><glyph d="M520 217Q520 168 504 126T457 53 385 4 291-14Q239-14 196 2T120 52 70 135 52 251Q52 350 80 430T157 569 270 665 407 714L436 611Q386 603 344 580T270 525 215 454 183 372Q203 397 235 414T315 432Q360 432 398 418T463 377 505 309 520 217ZM394 210Q394 322 284 322 244 322 217 304T178 262Q176 251 176 243T176 227Q176 203 183 180T203 138 238 108 288 96Q335 96 364 128T394 210Z" glyph-name="six" horiz-adv-x="567" unicode="&#x36;"/><glyph d="M104 0 333 539 377 588 317 578H60V700H511V662L231 0H104Z" glyph-name="seven" horiz-adv-x="567" unicode="&#x37;"/><glyph d="M61 171Q61 206 70 233T95 283 134 324 183 357Q134 388 106 428T78 529Q78 568 92 602T134 661 201 700 289 714Q334 714 371 702T434 668 475 615 490 545Q490 486 464 445T386 370Q446 335 476 293T507 185Q507 140 491 104T444 41 372 1 280-14Q230-14 190-1T121 37 77 95 61 171ZM383 184Q383 207 372 226T344 260 305 289 261 314Q214 287 197 256T179 193Q179 153 206 125T283 96Q328 96 355 118T383 184ZM202 527Q202 503 211 485T235 454 270 429 311 407Q371 458 371 519 371 561 347 582T287 604Q243 604 223 581T202 527Z" glyph-name="eight" horiz-adv-x="567" unicode="&#x38;"/><glyph d="M45 481Q45 532 60 575T105 648 177 696 275 714Q388 714 452 647T517 450Q517 334 488 250T409 109 294 22 157-14L129 88Q184 95 227 115T301 164 351 231 379 312Q355 286 328 276T254 266Q216 266 179 279T112 318 64 385 45 481ZM171 488Q171 431 203 402T283 373Q324 373 350 386T390 418Q393 439 393 458 393 486 386 513T365 561 328 594 274 607Q225 607 198 576T171 488Z" glyph-name="nine" horiz-adv-x="567" unicode="&#x39;"/><glyph d="M93 428Q93 463 115 483T173 504Q211 504 233 484T255 428Q255 393 233 372T173 351Q137 351 115 372T93 428ZM93 66Q93 101 115 121T173 142Q211 142 233 122T255 66Q255 31 233 10T173-11Q137-11 115 10T93 66Z" glyph-name="colon" horiz-adv-x="269" unicode="&#x3a;"/><glyph d="M82 64Q82 98 104 118T160 138Q202 138 226 110T250 36Q250-9 236-41T202-95 158-129 115-148L77-94Q104-83 124-58T146-5Q123-8 103 9T82 64ZM82 428Q82 463 104 483T162 504Q200 504 222 484T244 428Q244 393 222 372T162 351Q126 351 104 372T82 428Z" glyph-name="semicolon" horiz-adv-x="290" unicode="&#x3b;"/><glyph d="M40 285V355L426 586 483 496 259 357 168 322 258 291 488 154 431 64 40 285Z" glyph-name="less" horiz-adv-x="527" unicode="&#x26;&#x6c;&#x74;&#x3b;"/><glyph d="M43 490H485V378H43V490ZM43 555H485V443H43V555Z" glyph-name="equal" horiz-adv-x="527" unicode="&#x3d;"/><glyph d="M487 365V295L101 64 44 155 268 293 359 329 269 359 39 497 96 586 487 365Z" glyph-name="greater" horiz-adv-x="527" unicode="&#x26;&#x67;&#x74;&#x3b;"/><glyph d="M136 208Q131 260 141 296T168 359 208 405 250 443 283 480 296 527Q296 562 277 583T207 604Q191 604 173 601T137 591 103 576 73 558L23 654Q61 680 110 697T230 714Q324 714 377 669T430 546Q430 495 417 462T383 405 339 363 295 325 261 277 247 208H136ZM116 66Q116 101 138 121T196 142Q234 142 256 122T278 66Q278 31 256 10T196-11Q160-11 138 10T116 66Z" glyph-name="question" horiz-adv-x="454" unicode="&#x3f;"/><glyph d="M679 484H749L701 213Q693 166 700 145T734 124Q760 124 785 136T830 173 862 236 875 326Q875 401 850 454T782 541 679 592 552 608Q474 608 407 580T291 503 213 387 185 240Q185 162 208 100T277-5 388-72 541-96Q570-96 607-89T674-68L705-164Q664-184 622-192T524-200Q427-200 345-172T202-89 107 47 73 236Q73 345 112 433T217 583 370 678 554 712Q646 712 725 686T862 610 953 489 986 326Q986 262 964 206T902 109 810 44 697 20Q672 20 651 25T615 44 593 78 589 130H585Q570 109 553 89T514 54 468 29 413 20Q389 20 367 30T329 60 304 106 294 166Q294 228 314 286T368 390 448 462 545 490Q580 490 604 480T648 452L679 484ZM616 363Q603 374 589 380T554 386Q524 386 499 369T455 325 426 265 416 199Q416 166 429 145T476 124Q490 124 506 132T537 155 566 187 591 225L616 363Z" glyph-name="at" horiz-adv-x="1059" unicode="&#x40;"/><glyph d="M405 155H190L137 0H0L252 705H353L605 0H461L405 155ZM225 265H375L323 421 302 531H297L276 420 225 265Z" glyph-name="A" horiz-adv-x="605" unicode="&#x41;"/><glyph d="M531 537Q531 511 525 485T503 438 464 400 406 375V369Q436 364 463 352T510 319 541 268 553 197Q553 143 530 104T469 39 381 2 280-10Q263-10 237-10T180-9 118-4 60 5V695Q79 698 103 701T156 706 213 709 272 710Q321 710 367 703T450 676 509 623 531 537ZM281 103Q306 103 329 109T371 127 400 159 411 204Q411 237 398 256T364 285 317 299 265 302H192V109Q197 107 208 106T231 105 257 104 281 103ZM236 406Q250 406 268 407T299 410Q337 422 364 446T392 509Q392 535 382 552T356 579 318 593 274 597Q248 597 226 596T192 593V406H236Z" glyph-name="B" horiz-adv-x="591" unicode="&#x42;"/><glyph d="M534 29Q502 6 453-4T351-14Q288-14 232 5T132 68 64 181 38 350Q38 453 66 522T140 634 242 695 354 714Q414 714 455 706T524 687L497 571Q474 582 443 587T366 592Q283 592 233 533T182 350Q182 296 194 252T230 176 291 127 376 109Q421 109 452 118T506 141L534 29Z" glyph-name="C" horiz-adv-x="559" unicode="&#x43;"/><glyph d="M60 700Q81 703 107 705T162 708 216 709 264 710Q357 710 423 684T530 611 590 499 609 356Q609 285 591 219T531 102 421 20 251-11Q235-11 209-10T154-8 99-5 60-1V700ZM275 588Q253 588 231 587T197 584V115Q201 114 210 114T231 113 252 112 267 111Q325 111 363 131T424 186 456 264 465 356Q465 397 457 438T428 513 369 567 275 588Z" glyph-name="D" horiz-adv-x="647" unicode="&#x44;"/><glyph d="M60 700H475V578H197V415H450V293H197V122H480V0H60V700Z" glyph-name="E" horiz-adv-x="522" unicode="&#x45;"/><glyph d="M60 700H475V578H197V405H453V283H197V0H60V700Z" glyph-name="F" horiz-adv-x="508" unicode="&#x46;"/><glyph d="M307 365H568V53Q526 18 468 2T352-14Q285-14 228 7T128 72 62 186 38 350Q38 449 66 518T141 631 246 694 364 714Q424 714 469 705T542 686L514 571Q489 581 458 586T379 592Q336 592 300 579T238 537 197 461 182 349Q182 286 196 241T235 166 293 122 365 108Q391 108 416 114T458 134V266L307 282V365Z" glyph-name="G" horiz-adv-x="609" unicode="&#x47;"/><glyph d="M453 293H197V0H60V700H197V415H453V700H590V0H453V293Z" glyph-name="H" horiz-adv-x="651" unicode="&#x48;"/><glyph d="M74 700H211V0H74V700Z" glyph-name="I" horiz-adv-x="285" unicode="&#x49;"/><glyph d="M131 700H268V188Q268 148 259 112T230 49 177 5 99-12Q70-12 36-6T-23 11L7 123Q33 110 66 110 108 110 119 141T131 223V700Z" glyph-name="J" horiz-adv-x="334" unicode="&#x4a;"/><glyph d="M233 299H197V0H60V700H197V390L229 404 422 700H578L374 406 320 368 376 329 609 0H440L233 299Z" glyph-name="K" horiz-adv-x="620" unicode="&#x4b;"/><glyph d="M503 0H60V700H197V122H503V0Z" glyph-name="L" horiz-adv-x="514" unicode="&#x4c;"/><glyph d="M603 363 618 502H612L569 390 420 129H376L219 391 175 502H170L190 364V0H60V700H185L372 380 405 300H409L439 382 616 700H740V0H603V363Z" glyph-name="M" horiz-adv-x="800" unicode="&#x4d;"/><glyph d="M234 365 179 475H174L190 365V0H60V705H160L425 332 478 225H483L467 332V700H597V-5H497L234 365Z" glyph-name="N" horiz-adv-x="657" unicode="&#x4e;"/><glyph d="M38 350Q38 525 115 619T335 714Q410 714 466 688T559 614 614 499 632 350Q632 175 555 81T335-14Q259-14 203 12T111 86 56 201 38 350ZM182 350Q182 297 191 253T218 176 266 126 335 108Q408 108 448 165T488 350Q488 401 480 445T453 522 406 573 335 592Q262 592 222 534T182 350Z" glyph-name="O" horiz-adv-x="670" unicode="&#x4f;"/><glyph d="M60 693Q102 701 152 705T253 710Q305 710 357 702T452 668 520 597 547 478Q547 412 524 367T463 292 377 250 276 237Q271 237 260 237T237 237 214 239 197 241V0H60V693ZM264 592Q244 592 226 591T197 587V360Q201 359 209 358T226 357 243 356 256 356Q283 356 309 361T357 379 390 417 403 480Q403 513 391 534T360 569 315 587 264 592Z" glyph-name="P" horiz-adv-x="572" unicode="&#x50;"/><glyph d="M702-202Q654-215 605-215 554-215 506-205T413-182 326-160 247-149Q223-149 201-155V-37Q229-31 259-31 301-31 342-41T427-62 515-84 610-94Q632-94 655-92T702-83V-202ZM38 350Q38 525 115 619T335 714Q410 714 466 688T559 614 614 499 632 350Q632 175 555 81T335-14Q259-14 203 12T111 86 56 201 38 350ZM182 350Q182 297 191 253T218 176 266 126 335 108Q408 108 448 165T488 350Q488 401 480 445T453 522 406 573 335 592Q262 592 222 534T182 350Z" glyph-name="Q" horiz-adv-x="670" unicode="&#x51;"/><glyph d="M60 693Q83 697 109 700T162 706 214 709 260 710Q309 710 356 701T441 670 501 610 524 513Q524 427 484 373T377 298L426 267 586 0H428L269 274 197 287V0H60V693ZM270 588Q249 588 229 587T197 583V380H255Q312 380 346 406T380 492Q380 537 352 562T270 588Z" glyph-name="R" horiz-adv-x="602" unicode="&#x52;"/><glyph d="M362 188Q362 220 339 240T280 276 203 310 126 353 67 417 43 514Q43 565 60 602T108 665 183 702 279 714Q340 714 394 704T483 673L440 558Q418 572 374 583T279 595Q231 595 206 576T180 525Q180 495 203 475T262 438 339 403 416 360 475 297 499 203Q499 147 481 107T429 39 348-1 243-14Q168-14 111 0T27 28L71 145Q82 139 99 132T139 119 185 109 236 105Q297 105 329 125T362 188Z" glyph-name="S" horiz-adv-x="530" unicode="&#x53;"/><glyph d="M557 578H353V0H216V578H11V700H557V578Z" glyph-name="T" horiz-adv-x="568" unicode="&#x54;"/><glyph d="M440 700H570V248Q570 180 552 131T502 50 424 3 323-12Q57-12 57 231V700H194V258Q194 217 201 189T225 143 265 118 321 110Q384 110 412 145T440 258V700Z" glyph-name="U" horiz-adv-x="627" unicode="&#x55;"/><glyph d="M290 289 308 170H313L333 290 467 700H611L351-5H253L-9 700H150L290 289Z" glyph-name="V" horiz-adv-x="602" unicode="&#x56;"/><glyph d="M242 309 255 185H259L273 311 395 700H485L605 309 619 185H623L638 311 723 700H862L669-5H577L452 384 435 491H430L413 383 289-5H192L0 700H149L242 309Z" glyph-name="W" horiz-adv-x="862" unicode="&#x57;"/><glyph d="M225 356 30 700H195L303 498 327 427 350 498 463 700H612L410 363 622 0H459L336 216 309 290 283 216 159 0H10L225 356Z" glyph-name="X" horiz-adv-x="633" unicode="&#x58;"/><glyph d="M228 260-2 700H161L289 437 303 363H308L323 439 447 700H594L365 261V0H228V260Z" glyph-name="Y" horiz-adv-x="592" unicode="&#x59;"/><glyph d="M27 122 323 536 375 578H27V700H512V578L214 160 163 122H512V0H27V122Z" glyph-name="Z" horiz-adv-x="539" unicode="&#x5a;"/><glyph d="M60 700H295V590H184V-120H295V-230H60V700Z" glyph-name="bracketleft" horiz-adv-x="324" unicode="&#x5b;"/><glyph d="M438-95 339-140-24 668 78 711 438-95Z" glyph-name="backslash" horiz-adv-x="424" unicode="&#x5c;"/><glyph d="M264-230H29V-120H140V590H29V700H264V-230Z" glyph-name="bracketright" horiz-adv-x="324" unicode="&#x5d;"/><glyph d="M216 705H285L470 413H339L268 535 247 605 222 534 144 413H20L216 705Z" glyph-name="asciicircum" horiz-adv-x="500" unicode="&#x5e;"/><glyph d="M0-117H444V-224H0V-117Z" glyph-name="underscore" horiz-adv-x="444" unicode="&#x5f;"/><glyph d="M256 566H184L60 690V720H196L256 566Z" glyph-name="grave" horiz-adv-x="316" unicode="&#x60;"/><glyph d="M54 471Q94 489 149 499T264 510Q316 510 351 498T406 462 435 407 444 335Q444 291 441 247T438 159 440 76 455-1H349L328 68H323Q303 37 268 15T176-8Q141-8 113 2T65 32 34 78 23 138Q23 184 43 215T102 266 194 293 314 298Q321 354 306 378T239 403Q200 403 157 395T85 374L54 471ZM219 99Q258 99 281 116T315 154V219Q284 222 256 220T205 211 170 191 157 158Q157 130 173 115T219 99Z" glyph-name="a" horiz-adv-x="496" unicode="&#x61;"/><glyph d="M57 700H187V460H191Q212 484 245 498T318 512Q408 512 455 451T503 263Q503 128 437 58T254-12Q190-12 137-2T57 22V700ZM280 402Q244 402 222 384T187 330V112Q203 104 221 101T261 98Q314 98 341 136T369 259Q369 402 280 402Z" glyph-name="b" horiz-adv-x="536" unicode="&#x62;"/><glyph d="M411 31Q381 9 339-2T251-14Q191-14 150 5T82 58 45 142 33 250Q33 377 90 445T256 514Q311 514 344 505T405 482L374 376Q351 387 329 393T277 399Q223 399 195 364T167 250Q167 218 174 191T195 144 231 113 284 101Q317 101 340 109T381 130L411 31Z" glyph-name="c" horiz-adv-x="433" unicode="&#x63;"/><glyph d="M482 176Q482 134 483 92T492-1H399L381 64H377Q357 29 320 8T231-14Q137-14 85 48T33 242Q33 370 91 441T261 512Q292 512 312 509T352 497V700H482V176ZM261 96Q299 96 321 114T352 168V380Q338 391 321 396T277 402Q222 402 195 365T167 238Q167 174 189 135T261 96Z" glyph-name="d" horiz-adv-x="539" unicode="&#x64;"/><glyph d="M457 43Q427 19 376 3T266-14Q145-14 89 56T33 250Q33 382 96 448T273 514Q311 514 347 504T411 471 456 409 473 312Q473 291 471 267T463 217H163Q166 154 195 122T291 90Q332 90 364 102T414 128L457 43ZM271 410Q220 410 196 380T166 298H352Q356 352 336 381T271 410Z" glyph-name="e" horiz-adv-x="508" unicode="&#x65;"/><glyph d="M11 500H80V528Q80 623 120 665T236 708Q316 708 369 689L344 585Q321 593 304 595T267 598Q247 598 236 592T219 574 212 543 210 500H320V390H210V0H80V390H11V500Z" glyph-name="f" horiz-adv-x="321" unicode="&#x66;"/><glyph d="M480 0Q480-109 421-160T256-212Q184-212 143-202T80-181L107-78Q130-87 160-96T236-105Q304-105 328-76T353 7V39H349Q314-8 225-8 128-8 81 52T33 240Q33 374 97 443T283 512Q347 512 397 503T480 482V0ZM260 96Q298 96 318 113T350 164V389Q319 402 273 402 223 402 195 365T167 245Q167 172 191 134T260 96Z" glyph-name="g" horiz-adv-x="536" unicode="&#x67;"/><glyph d="M363 0V284Q363 345 346 372T284 399Q251 399 224 377T187 319V0H57V700H187V444H191Q215 476 250 495T339 514Q377 514 406 504T454 471 483 409 493 311V0H363Z" glyph-name="h" horiz-adv-x="545" unicode="&#x68;"/><glyph d="M324 500H454V0H324V500ZM305 641Q305 670 326 690T386 711Q424 711 447 691T471 641Q471 612 448 593T386 573Q348 573 327 592T305 641Z" glyph-name="i" horiz-adv-x="269" unicode="&#x69;"/><glyph d="M69 500H199V-21Q199-112 163-160T48-208Q18-208-16-201V-92Q-12-92-9-92T-3-93Q42-93 55-64T69 16V500ZM307 641Q307 670 328 690T388 711Q426 711 449 691T473 641Q473 612 450 593T388 573Q350 573 329 592T307 641Z" glyph-name="j" horiz-adv-x="268" unicode="&#x6a;"/><glyph d="M222 207H187V0H57V700H187V287L217 301 331 500H474L354 310 303 272 358 233 493 0H344L222 207Z" glyph-name="k" horiz-adv-x="491" unicode="&#x6b;"/><glyph d="M191 168Q191 133 200 117T229 101Q241 101 252 103T281 112L295 10Q279 2 246-6T178-14Q121-14 91 12T61 100V700H191V168Z" glyph-name="l" horiz-adv-x="294" unicode="&#x6c;"/><glyph d="M341 0V272Q341 341 328 370T274 399Q240 399 219 381T187 333V0H57V500H158L173 434H177Q200 466 235 490T327 514Q375 514 405 495T453 429Q476 468 512 491T599 514Q641 514 670 504T718 470 746 404 755 300V0H625V281Q625 340 613 369T557 399Q522 399 502 380T471 328V0H341Z" glyph-name="m" horiz-adv-x="805" unicode="&#x6d;"/><glyph d="M363 0V284Q363 345 346 372T286 399Q249 399 224 378T187 324V0H57V500H160L175 434H179Q202 466 240 490T338 514Q375 514 404 504T453 471 483 409 493 311V0H363Z" glyph-name="n" horiz-adv-x="545" unicode="&#x6e;"/><glyph d="M33 250Q33 377 95 445T269 514Q329 514 373 495T446 442 489 358 504 250Q504 123 443 55T269-14Q209-14 165 5T92 58 48 142 33 250ZM167 250Q167 217 173 189T191 140 222 108 269 96Q320 96 345 133T370 250Q370 319 347 361T269 404Q221 404 194 368T167 250Z" glyph-name="o" unicode="&#x6f;"/><glyph d="M57 500H152L167 440H171Q197 478 232 496T319 514Q413 514 460 455T507 263Q507 199 492 148T448 60 376 5 278-14Q247-14 227-10T187 5V-200H57V500ZM280 404Q242 404 221 385T187 328V120Q201 109 217 103T261 96Q317 96 345 135T373 266Q373 332 351 368T280 404Z" glyph-name="p" horiz-adv-x="540" unicode="&#x70;"/><glyph d="M480-200H350V43H346Q329 17 300 2T225-14Q132-14 83 49T33 240Q33 374 100 443T294 512Q321 512 348 510T399 503 445 493 480 482V-200ZM260 96Q298 96 318 113T350 164V389Q335 397 316 399T273 402Q220 402 194 362T167 245Q167 172 191 134T260 96Z" glyph-name="q" horiz-adv-x="536" unicode="&#x71;"/><glyph d="M333 378Q302 389 277 389 242 389 219 371T187 323V0H57V500H158L173 434H177Q194 471 223 491T291 511Q317 511 350 500L333 378Z" glyph-name="r" horiz-adv-x="351" unicode="&#x72;"/><glyph d="M264 138Q264 158 247 170T205 192 150 212 95 241 53 288 36 362Q36 436 80 475T207 514Q264 514 310 502T382 475L353 381Q330 390 295 400T224 410Q166 410 166 365 166 347 183 336T225 316 280 295 335 267 377 221 394 149Q394 73 346 30T200-14Q147-14 101-1T25 31L61 128Q84 115 122 103T200 90Q229 90 246 101T264 138Z" glyph-name="s" horiz-adv-x="422" unicode="&#x73;"/><glyph d="M5 500H74V594L204 631V500H326V390H204V198Q204 146 214 124T254 101Q274 101 288 105T321 117L344 17Q317 4 281-5T208-14Q139-14 107 21T74 138V390H5V500Z" glyph-name="t" horiz-adv-x="349" unicode="&#x74;"/><glyph d="M182 500V216Q182 155 196 128T253 101Q290 101 314 123T351 177V500H481V152Q481 111 485 72T497 0H399L376 74H372Q349 36 308 11T211-14Q173-14 143-4T93 29 63 91 52 189V500H182Z" glyph-name="u" horiz-adv-x="538" unicode="&#x75;"/><glyph d="M230 238 247 161H252L266 240 351 500H491L282-5H203L-14 500H137L230 238Z" glyph-name="v" horiz-adv-x="477" unicode="&#x76;"/><glyph d="M419 500 510 244 528 161H532L546 245 610 500H729L575-5H479L378 275 365 338H360L348 274 252-5H153L-8 500H133L206 249 218 160H223L240 250 323 500H419Z" glyph-name="w" horiz-adv-x="721" unicode="&#x77;"/><glyph d="M170 256 20 500H175L240 393 268 323 298 393 366 500H507L356 260 517 0H366L289 120 259 194 227 120 150 0H8L170 256Z" glyph-name="x" horiz-adv-x="525" unicode="&#x78;"/><glyph d="M239 219 257 141H263L276 220 352 500H486L334 49Q315-7 298-53T259-134 213-186 152-205Q100-205 69-188L93-84Q108-90 123-90 146-90 167-71T200 0L-9 500H147L239 219Z" glyph-name="y" horiz-adv-x="478" unicode="&#x79;"/><glyph d="M31 110 228 347 279 390H31V500H423V390L228 149 178 110H423V0H31V110Z" glyph-name="z" horiz-adv-x="458" unicode="&#x7a;"/><glyph d="M123 96Q123 147 102 166T43 185V285Q81 285 102 305T123 370V579Q123 633 148 667T230 701H350V591H300Q273 591 261 577T248 531V336Q248 292 227 270T178 242V232Q205 228 226 202T248 134V-60Q248-92 260-106T301-120H350V-230H230Q178-230 151-199T123-109V96Z" glyph-name="braceleft" horiz-adv-x="371" unicode="&#x7b;"/><glyph d="M60 700H167V-130H60V700Z" glyph-name="bar" horiz-adv-x="227" unicode="&#x7c;"/><glyph d="M261 375Q261 324 282 305T341 286V186Q303 186 282 166T261 101V-108Q261-162 235-196T152-230H35V-120H85Q112-120 124-107T137-60V135Q137 179 158 201T207 229V239Q180 243 159 269T137 337V531Q137 562 125 576T84 591H35V701H154Q207 701 234 670T261 580V375Z" glyph-name="braceright" horiz-adv-x="371" unicode="&#x7d;"/><glyph d="M28 378Q75 416 112 430T182 445Q211 445 236 437T284 419 329 401 375 392Q393 392 412 398T452 421L499 318Q463 291 433 280T377 269Q349 269 325 278T279 298 233 318 184 327Q160 327 133 317T72 278L28 378Z" glyph-name="asciitilde" horiz-adv-x="527" unicode="&#x7e;"/><glyph glyph-name="uni00A0" horiz-adv-x="253" unicode="&#xa0;"/><glyph d="M191-200H57V129L83 291H165L191 129V-200ZM44 435Q44 470 66 490T124 511Q162 511 184 491T206 435Q206 400 184 379T124 358Q88 358 66 379T44 435Z" glyph-name="exclamdown" horiz-adv-x="293" unicode="&#xa1;"/><glyph d="M489 31Q472 18 447 9T392-6V-100H271V-11Q220-4 185 17T127 72 94 151 84 250Q84 362 132 428T271 510V600H392V510Q420 506 442 500T482 484L452 378Q437 385 420 389T385 395V104Q408 107 426 114T459 129L489 31ZM212 250Q212 199 231 161T295 108V394Q253 383 233 349T212 250Z" glyph-name="cent" horiz-adv-x="567" unicode="&#xa2;"/><glyph d="M51 394H119Q106 418 97 448T87 520Q87 569 103 605T149 666 220 702 310 714Q371 714 421 703T507 674L465 558Q445 569 410 580T326 592Q278 592 251 570T224 502Q224 468 236 444T264 394H405V287H307Q310 270 310 253 310 223 300 190T269 136L226 105V100L293 115H523V0H51V115H53Q84 116 107 126T146 152 170 191 178 237Q178 264 172 287H51V394Z" glyph-name="sterling" horiz-adv-x="567" unicode="&#xa3;"/><glyph d="M81 622 159 545 178 508Q198 523 225 530T283 538Q312 538 340 531T388 509L408 545 486 622 563 542 486 464 449 448Q463 427 469 401T475 345Q475 315 469 289T449 244L486 228 563 150 486 70 408 147 390 184Q371 170 342 162T283 154Q253 154 226 161T178 183L159 147 81 70 5 150 82 228 118 245Q106 266 99 290T92 345Q92 374 99 399T120 447L82 464 5 542 81 622ZM201 346Q201 308 224 284T284 260Q321 260 343 284T366 346Q366 382 344 407T284 432Q247 432 224 407T201 346Z" glyph-name="currency" horiz-adv-x="567" unicode="&#xa4;"/><glyph d="M85 337H175L-14 700H149L277 437 291 363H296L311 439 435 700H582L392 337H483V257H353V199H483V119H353V0H216V119H85V199H216V257H85V337Z" glyph-name="yen" horiz-adv-x="567" unicode="&#xa5;"/><glyph d="M60 213H167V-130H60V213ZM167 357H60V700H167V357Z" glyph-name="brokenbar" horiz-adv-x="227" unicode="&#xa6;"/><glyph d="M49 353Q49 384 64 413T105 466L146 480Q120 496 103 520T86 586Q86 642 129 678T261 714Q320 714 371 704T449 681L417 576Q394 587 356 595T283 604Q246 604 231 593T216 565Q216 547 235 537T284 519 348 501 412 473 461 425 481 347Q481 316 467 287T426 235L381 221Q408 205 426 180T444 114Q444 51 395 19T265-14Q197-14 152-1T77 29L111 129Q134 118 167 107T244 96Q281 96 297 105T314 136Q314 155 295 165T246 184 182 203 118 230 69 277 49 353ZM351 345Q351 363 343 375T318 396 279 414 227 431Q207 419 193 400T179 355Q179 320 211 303T299 270Q321 282 336 302T351 345Z" glyph-name="section" horiz-adv-x="530" unicode="&#xa7;"/><glyph d="M60 651Q60 683 79 702T131 721Q163 721 181 702T200 651Q200 621 182 602T131 583Q99 583 80 602T60 651ZM279 651Q279 683 297 702T348 721Q380 721 399 702T419 651Q419 621 400 602T348 583Q316 583 298 602T279 651Z" glyph-name="dieresis" horiz-adv-x="479" unicode="&#xa8;"/><glyph d="M55 290Q55 373 83 439T159 553 274 625 416 651Q492 651 557 626T672 553 749 440 777 290Q777 207 749 141T672 27 558-45 416-71Q333-71 266-46T152 27 80 140 55 290ZM153 290Q153 228 172 178T227 94 311 41 416 22Q473 22 521 40T605 93 660 178 680 290Q680 352 661 402T606 486 522 539 416 558Q359 558 311 540T228 487 173 402 153 290ZM541 131Q519 117 486 109T414 100Q333 100 291 151T248 290Q248 381 293 430T414 480Q451 480 479 472T534 448L502 361Q484 370 470 373T441 376Q412 376 395 357T378 290Q378 204 448 204 467 204 482 207T512 219L541 131Z" glyph-name="copyright" horiz-adv-x="833" unicode="&#xa9;"/><glyph d="M61 674Q87 688 134 698T241 708Q317 708 345 681T373 596Q373 536 370 480T378 380H277L264 426H260Q247 409 223 393T156 376Q104 376 73 403T42 475Q42 508 59 530T106 565 175 582 259 585Q261 611 252 622T208 634Q168 634 136 626T83 610L61 674ZM194 454Q226 454 239 465T259 489V524Q216 529 187 522T157 488Q157 472 167 463T194 454Z" glyph-name="ordfeminine" horiz-adv-x="420" unicode="&#xaa;"/><glyph d="M223 261 377 477 448 421 367 299 321 260 367 225 454 104 383 48 223 261ZM29 259 189 489 268 427 181 301 133 260 181 224 274 100 195 38 29 259Z" glyph-name="guillemotleft" horiz-adv-x="488" unicode="&#xab;"/><glyph d="M45 412H487V186H367V300H45V412Z" glyph-name="logicalnot" horiz-adv-x="527" unicode="&#xac;"/><glyph d="M54 345H305V230H54V345Z" glyph-name="uni00AD" horiz-adv-x="360" unicode="&#xad;"/><glyph d="M62 451Q62 518 84 570T146 659 236 714 345 733Q404 733 455 714T545 659 605 571 627 451Q627 383 605 331T544 242 454 188 345 169Q286 169 235 187T145 242 84 330 62 451ZM156 451Q156 403 171 367T213 306 273 270 345 258Q385 258 419 269T479 305 518 365 533 451Q533 499 518 535T478 595 418 631 345 643Q303 643 268 630T208 592 170 532 156 451ZM242 581Q258 586 287 588T342 591Q384 591 414 574T444 513Q444 481 424 464T373 445L401 431 466 322H405L342 426 294 441V322H242V581ZM331 546Q320 546 310 546T294 542V471H328Q357 471 373 480T389 511Q389 546 331 546Z" glyph-name="registered" horiz-adv-x="690" unicode="&#xae;"/><glyph d="M60 658H383V566H60V658Z" glyph-name="overscore" horiz-adv-x="443" unicode="&#xaf;"/><glyph d="M60 548Q60 585 73 615T108 668 160 702 224 714Q258 714 288 703T342 671 378 618 391 548Q391 509 378 479T342 427 289 395 224 384Q190 384 161 395T109 427 73 478 60 548ZM160 548Q160 516 179 498T225 479Q252 479 272 497T292 548Q292 580 272 599T225 619Q198 619 179 600T160 548Z" glyph-name="degree" horiz-adv-x="437" unicode="&#xb0;"/><glyph d="M43 518H205V682H322V518H485V406H322V299H205V406H43V518ZM43 253H485V141H43V253Z" glyph-name="plusminus" horiz-adv-x="527" unicode="&#xb1;"/><glyph d="M348 680Q348 621 318 579T246 499L199 474V470L258 481H364V380H51V451Q77 469 109 493T168 544 214 601 233 656Q233 705 177 705 150 705 126 697T84 677L50 767Q85 788 124 797T200 807Q271 807 309 775T348 680Z" glyph-name="twosuperior" horiz-adv-x="412" unicode="&#xb2;"/><glyph d="M169 468Q213 468 231 482T251 519Q250 542 231 555T161 568H119V606L192 686 235 711 177 705H62V800H345V738L258 646 224 628V623L254 626Q306 624 335 595T366 511Q365 475 351 449T312 406 254 381 186 373Q147 373 114 379T56 397L79 487Q120 468 169 468Z" glyph-name="threesuperior" horiz-adv-x="412" unicode="&#xb3;"/><glyph d="M113 720H245V690L134 566H60L113 720Z" glyph-name="acute" horiz-adv-x="305" unicode="&#xb4;"/><glyph d="M182 500V227Q182 163 202 131T274 98Q320 98 348 121T388 185V500H518V163Q518 122 520 81T533 0H437L405 74H401Q384 39 351 14T265-12Q226-12 205 2T166 38H161L182-67V-200H52V500H182Z" glyph-name="mu" horiz-adv-x="569" unicode="&#xb5;"/><glyph d="M362 700H469V-130H362V700ZM178 294Q145 294 117 310T69 355 37 420 26 498Q26 538 39 574T76 639 134 683 210 700H284V-130H178V294Z" glyph-name="paragraph" horiz-adv-x="529" unicode="&#xb6;"/><glyph d="M45 316Q45 351 67 371T125 392Q163 392 185 372T207 316Q207 281 185 260T125 239Q89 239 67 260T45 316Z" glyph-name="middot" horiz-adv-x="253" unicode="&#xb7;"/><glyph d="M208 0 184-43Q225-47 248-64T272-118Q272-141 261-158T229-186 182-204 124-210Q93-210 60-204L69-156Q76-157 82-157T93-157Q131-157 142-148T153-127Q153-99 67-95L124 0H208Z" glyph-name="cedilla" horiz-adv-x="332" unicode="&#xb8;"/><glyph d="M72 480H169V644L179 690 149 658 90 619 41 696 199 807H284V480H372V380H72V480Z" glyph-name="onesuperior" horiz-adv-x="412" unicode="&#xb9;"/><glyph d="M34 542Q34 587 47 619T83 672 138 702 209 712Q247 712 279 703T334 674 371 622 385 542Q384 495 371 463T335 410 279 381 209 372Q171 372 139 381T83 410 47 462 34 542ZM150 542Q150 456 209 456 240 456 253 474T268 542Q267 590 254 609T209 628Q178 628 164 609T150 542Z" glyph-name="ordmasculine" horiz-adv-x="419" unicode="&#xba;"/><glyph d="M264 266 111 50 39 106 121 228 166 267 121 302 34 423 104 479 264 266ZM459 268 299 38 220 100 307 226 355 267 307 303 214 427 293 489 459 268Z" glyph-name="guillemotright" horiz-adv-x="488" unicode="&#xbb;"/><glyph d="M609 715 694 665 264-14 178 39 609 715ZM833 78H757V0H656V78H449V145L667 428H757V167H833V78ZM656 253 662 306H657L635 257 587 191 551 159 603 167H656V253ZM421 544 432 590 401 558 342 519 293 596 451 707H536V280H421V544Z" glyph-name="onequarter" horiz-adv-x="880" unicode="&#xbc;"/><glyph d="M609 715 694 665 264-14 178 39 609 715ZM841 300Q841 241 811 199T739 119L692 94V90L751 101H857V0H544V71Q570 89 602 113T661 164 707 221 726 276Q726 325 670 325 643 325 619 317T577 297L543 387Q578 408 617 417T693 427Q764 427 802 395T841 300ZM421 544 432 590 401 558 342 519 293 596 451 707H536V280H421V544Z" glyph-name="onehalf" horiz-adv-x="903" unicode="&#xbd;"/><glyph d="M634 715 719 665 289-14 203 39 634 715ZM858 78H782V0H681V78H474V145L692 428H782V167H858V78ZM681 253 687 306H682L660 257 612 191 576 159 628 167H681V253ZM161 368Q205 368 223 382T243 419Q242 442 223 455T153 468H111V506L184 586 227 611 169 605H54V700H337V638L250 546 216 528V523L246 526Q298 524 327 495T358 411Q357 375 343 349T304 306 246 281 178 273Q139 273 106 279T48 297L71 387Q112 368 161 368Z" glyph-name="threequarters" horiz-adv-x="905" unicode="&#xbe;"/><glyph d="M317 293Q322 241 313 205T285 142 245 96 204 59 171 22 157-25Q157-60 177-81T247-103Q263-103 281-100T317-90 351-75 381-56L430-152Q392-178 343-195T224-212Q130-212 77-167T23-44Q23 7 36 40T70 96 114 138 158 176 192 224 206 293H317ZM178 435Q178 470 200 490T258 511Q296 511 318 491T340 435Q340 400 318 379T258 358Q222 358 200 379T178 435Z" glyph-name="questiondown" horiz-adv-x="454" unicode="&#xbf;"/><glyph d="M405 155H190L137 0H0L252 705H353L605 0H461L405 155ZM225 265H375L323 421 302 531H297L276 420 225 265ZM399 752H294L136 840V870H295L399 752Z" glyph-name="Agrave" horiz-adv-x="605" unicode="&#xc0;"/><glyph d="M405 155H190L137 0H0L252 705H353L605 0H461L405 155ZM225 265H375L323 421 302 531H297L276 420 225 265ZM309 870H468V840L308 752H205L309 870Z" glyph-name="Aacute" horiz-adv-x="605" unicode="&#xc1;"/><glyph d="M405 155H190L137 0H0L252 705H353L605 0H461L405 155ZM225 265H375L323 421 302 531H297L276 420 225 265ZM257 870H353L480 777V738H381L324 779 304 813 283 780 221 738H124V778L257 870Z" glyph-name="Acircumflex" horiz-adv-x="605" unicode="&#xc2;"/><glyph d="M405 155H190L137 0H0L252 705H353L605 0H461L405 155ZM225 265H375L323 421 302 531H297L276 420 225 265ZM113 800Q145 835 174 848T233 861Q255 861 277 856T319 844 360 832 398 826Q414 826 429 831T458 850L483 783Q455 757 429 747T377 736Q354 736 333 741T292 754 251 766 212 772Q193 772 175 765T137 737L113 800Z" glyph-name="Atilde" horiz-adv-x="605" unicode="&#xc3;"/><glyph d="M405 155H190L137 0H0L252 705H353L605 0H461L405 155ZM225 265H375L323 421 302 531H297L276 420 225 265ZM124 798Q124 824 142 840T200 856Q239 856 257 840T275 798Q275 772 257 757T200 741Q160 741 142 756T124 798ZM338 798Q338 824 356 840T413 856Q453 856 471 840T489 798Q489 772 471 757T413 741Q374 741 356 756T338 798Z" glyph-name="Adieresis" horiz-adv-x="605" unicode="&#xc4;"/><glyph d="M175 771Q175 789 181 805T201 834 240 854 303 861Q373 861 402 837T431 771Q431 742 415 721T358 689L605 0H461L405 155H190L137 0H0L246 689Q207 698 191 720T175 771ZM225 265H375L323 421 302 531H297L276 420 225 265ZM259 771Q259 740 303 740 328 740 338 748T348 771Q348 788 338 796T303 804Q259 804 259 771Z" glyph-name="Aring" horiz-adv-x="605" unicode="&#xc5;"/><glyph d="M394 532 358 429 274 281H400V532H394ZM400 170H214L115 0H-29L395 700H814V578H537V415H789V293H537V122H819V0H400V170Z" glyph-name="AE" horiz-adv-x="862" unicode="&#xc6;"/><glyph d="M534 29Q508 10 469 0T385-13L369-43Q410-47 433-64T457-118Q457-141 446-158T414-186 367-204 309-210Q278-210 245-204L254-156Q261-157 267-157T278-157Q316-157 327-148T338-127Q338-99 252-95L302-11Q247-4 199 19T115 87 59 196 38 350Q38 453 66 522T140 634 242 695 354 714Q414 714 455 706T524 687L497 571Q474 582 443 587T366 592Q283 592 233 533T182 350Q182 296 194 252T230 176 291 127 376 109Q421 109 452 118T506 141L534 29Z" glyph-name="Ccedilla" horiz-adv-x="559" unicode="&#xc7;"/><glyph d="M60 700H475V578H197V415H450V293H197V122H480V0H60V700ZM352 752H247L89 840V870H248L352 752Z" glyph-name="Egrave" horiz-adv-x="522" unicode="&#xc8;"/><glyph d="M60 700H475V578H197V415H450V293H197V122H480V0H60V700ZM293 870H452V840L292 752H189L293 870Z" glyph-name="Eacute" horiz-adv-x="522" unicode="&#xc9;"/><glyph d="M60 700H475V578H197V415H450V293H197V122H480V0H60V700ZM219 870H315L442 777V738H343L286 779 266 813 245 780 183 738H86V778L219 870Z" glyph-name="Ecircumflex" horiz-adv-x="522" unicode="&#xca;"/><glyph d="M60 700H475V578H197V415H450V293H197V122H480V0H60V700ZM84 798Q84 824 102 840T160 856Q199 856 217 840T235 798Q235 772 217 757T160 741Q120 741 102 756T84 798ZM298 798Q298 824 316 840T373 856Q413 856 431 840T449 798Q449 772 431 757T373 741Q334 741 316 756T298 798Z" glyph-name="Edieresis" horiz-adv-x="522" unicode="&#xcb;"/><glyph d="M74 700H211V0H74V700ZM497 752H392L234 840V870H393L497 752Z" glyph-name="Igrave" horiz-adv-x="285" unicode="&#xcc;"/><glyph d="M74 700H211V0H74V700ZM409 870H568V840L408 752H305L409 870Z" glyph-name="Iacute" horiz-adv-x="285" unicode="&#xcd;"/><glyph d="M74 700H211V0H74V700ZM353 870H449L576 777V738H477L420 779 400 813 379 780 317 738H220V778L353 870Z" glyph-name="Icircumflex" horiz-adv-x="285" unicode="&#xce;"/><glyph d="M74 700H211V0H74V700ZM218 798Q218 824 236 840T294 856Q333 856 351 840T369 798Q369 772 351 757T294 741Q254 741 236 756T218 798ZM432 798Q432 824 450 840T507 856Q547 856 565 840T583 798Q583 772 565 757T507 741Q468 741 450 756T432 798Z" glyph-name="Idieresis" horiz-adv-x="285" unicode="&#xcf;"/><glyph d="M-6 401H82V700Q103 703 129 705T184 708 238 709 286 710Q379 710 445 684T552 611 612 499 631 356Q631 285 613 219T553 102 443 20 273-11Q257-11 231-10T176-8 121-5 82-1V321H-6V401ZM297 588Q275 588 253 587T219 584V401H359V321H219V114Q223 113 232 113T253 112 274 111 289 111Q347 111 385 131T446 186 478 264 487 356Q487 397 479 438T450 513 391 567 297 588Z" glyph-name="Eth" horiz-adv-x="669" unicode="&#xd0;"/><glyph d="M234 365 179 475H174L190 365V0H60V705H160L425 332 478 225H483L467 332V700H597V-5H497L234 365ZM138 800Q170 835 199 848T258 861Q280 861 302 856T344 844 385 832 423 826Q439 826 454 831T483 850L508 783Q480 757 454 747T402 736Q379 736 358 741T317 754 276 766 237 772Q218 772 200 765T162 737L138 800Z" glyph-name="Ntilde" horiz-adv-x="657" unicode="&#xd1;"/><glyph d="M38 350Q38 525 115 619T335 714Q410 714 466 688T559 614 614 499 632 350Q632 175 555 81T335-14Q259-14 203 12T111 86 56 201 38 350ZM182 350Q182 297 191 253T218 176 266 126 335 108Q408 108 448 165T488 350Q488 401 480 445T453 522 406 573 335 592Q262 592 222 534T182 350ZM412 752H307L149 840V870H308L412 752Z" glyph-name="Ograve" horiz-adv-x="670" unicode="&#xd2;"/><glyph d="M38 350Q38 525 115 619T335 714Q410 714 466 688T559 614 614 499 632 350Q632 175 555 81T335-14Q259-14 203 12T111 86 56 201 38 350ZM182 350Q182 297 191 253T218 176 266 126 335 108Q408 108 448 165T488 350Q488 401 480 445T453 522 406 573 335 592Q262 592 222 534T182 350ZM368 870H527V840L367 752H264L368 870Z" glyph-name="Oacute" horiz-adv-x="670" unicode="&#xd3;"/><glyph d="M38 350Q38 525 115 619T335 714Q410 714 466 688T559 614 614 499 632 350Q632 175 555 81T335-14Q259-14 203 12T111 86 56 201 38 350ZM182 350Q182 297 191 253T218 176 266 126 335 108Q408 108 448 165T488 350Q488 401 480 445T453 522 406 573 335 592Q262 592 222 534T182 350ZM287 870H383L510 777V738H411L354 779 334 813 313 780 251 738H154V778L287 870Z" glyph-name="Ocircumflex" horiz-adv-x="670" unicode="&#xd4;"/><glyph d="M38 350Q38 525 115 619T335 714Q410 714 466 688T559 614 614 499 632 350Q632 175 555 81T335-14Q259-14 203 12T111 86 56 201 38 350ZM182 350Q182 297 191 253T218 176 266 126 335 108Q408 108 448 165T488 350Q488 401 480 445T453 522 406 573 335 592Q262 592 222 534T182 350ZM144 800Q176 835 205 848T264 861Q286 861 308 856T350 844 391 832 429 826Q445 826 460 831T489 850L514 783Q486 757 460 747T408 736Q385 736 364 741T323 754 282 766 243 772Q224 772 206 765T168 737L144 800Z" glyph-name="Otilde" horiz-adv-x="670" unicode="&#xd5;"/><glyph d="M38 350Q38 525 115 619T335 714Q410 714 466 688T559 614 614 499 632 350Q632 175 555 81T335-14Q259-14 203 12T111 86 56 201 38 350ZM182 350Q182 297 191 253T218 176 266 126 335 108Q408 108 448 165T488 350Q488 401 480 445T453 522 406 573 335 592Q262 592 222 534T182 350ZM150 798Q150 824 168 840T226 856Q265 856 283 840T301 798Q301 772 283 757T226 741Q186 741 168 756T150 798ZM364 798Q364 824 382 840T439 856Q479 856 497 840T515 798Q515 772 497 757T439 741Q400 741 382 756T364 798Z" glyph-name="Odieresis" horiz-adv-x="670" unicode="&#xd6;"/><glyph d="M134 547 265 417 395 547 474 466 344 339 474 210 395 128 265 259 133 127 54 208 185 339 56 466 134 547Z" glyph-name="multiply" horiz-adv-x="527" unicode="&#xd7;"/><glyph d="M111 86Q74 134 56 200T38 350Q38 525 115 619T335 714Q380 714 418 704T487 676L512 715 597 665 562 609Q597 561 614 496T632 350Q632 175 555 81T335-14Q291-14 255-6T188 19L167-14 81 39 111 86ZM182 350Q182 314 186 282T198 223L417 565Q382 592 335 592 262 592 222 534T182 350ZM488 350Q488 383 485 413T474 470L259 130Q292 108 335 108 408 108 448 165T488 350Z" glyph-name="Oslash" horiz-adv-x="670" unicode="&#xd8;"/><glyph d="M440 700H570V248Q570 180 552 131T502 50 424 3 323-12Q57-12 57 231V700H194V258Q194 217 201 189T225 143 265 118 321 110Q384 110 412 145T440 258V700ZM395 752H290L132 840V870H291L395 752Z" glyph-name="Ugrave" horiz-adv-x="627" unicode="&#xd9;"/><glyph d="M440 700H570V248Q570 180 552 131T502 50 424 3 323-12Q57-12 57 231V700H194V258Q194 217 201 189T225 143 265 118 321 110Q384 110 412 145T440 258V700ZM365 870H524V840L364 752H261L365 870Z" glyph-name="Uacute" horiz-adv-x="627" unicode="&#xda;"/><glyph d="M440 700H570V248Q570 180 552 131T502 50 424 3 323-12Q57-12 57 231V700H194V258Q194 217 201 189T225 143 265 118 321 110Q384 110 412 145T440 258V700ZM273 870H369L496 777V738H397L340 779 320 813 299 780 237 738H140V778L273 870Z" glyph-name="Ucircumflex" horiz-adv-x="627" unicode="&#xdb;"/><glyph d="M440 700H570V248Q570 180 552 131T502 50 424 3 323-12Q57-12 57 231V700H194V258Q194 217 201 189T225 143 265 118 321 110Q384 110 412 145T440 258V700ZM133 798Q133 824 151 840T209 856Q248 856 266 840T284 798Q284 772 266 757T209 741Q169 741 151 756T133 798ZM347 798Q347 824 365 840T422 856Q462 856 480 840T498 798Q498 772 480 757T422 741Q383 741 365 756T347 798Z" glyph-name="Udieresis" horiz-adv-x="627" unicode="&#xdc;"/><glyph d="M228 260-2 700H161L289 437 303 363H308L323 439 447 700H594L365 261V0H228V260ZM326 870H485V840L325 752H222L326 870Z" glyph-name="Yacute" horiz-adv-x="592" unicode="&#xdd;"/><glyph d="M60 700H197V628Q211 629 225 629T253 630Q305 630 357 622T452 588 520 517 547 398Q547 332 524 287T463 212 377 170 276 157Q271 157 260 157T237 157 214 159 197 161V0H60V700ZM264 512Q244 512 226 511T197 507V280Q201 279 209 278T226 277 243 276 256 276Q283 276 309 281T357 299 390 337 403 400Q403 433 391 454T360 489 315 507 264 512Z" glyph-name="Thorn" horiz-adv-x="572" unicode="&#xde;"/><glyph d="M81 390H12V500H81Q81 558 97 597T141 661 209 697 296 708Q347 708 387 697T456 664 500 614 516 548Q516 509 499 485T460 444 421 412 403 375Q403 357 417 346T454 326 502 306 550 278 587 235 602 167Q602 132 591 100T557 42 498 1 414-14Q367-14 328-3T260 26L295 123Q318 110 341 100T403 90Q433 90 452 110T472 160Q472 181 458 194T421 217 373 238 325 263 288 302 273 361Q273 404 290 428T329 468 368 499 386 537Q386 550 379 561T360 581 333 594 303 599Q255 599 233 576T210 488V0H81V390Z" glyph-name="germandbls" horiz-adv-x="630" unicode="&#xdf;"/><glyph d="M54 471Q94 489 149 499T264 510Q316 510 351 498T406 462 435 407 444 335Q444 291 441 247T438 159 440 76 455-1H349L328 68H323Q303 37 268 15T176-8Q141-8 113 2T65 32 34 78 23 138Q23 184 43 215T102 266 194 293 314 298Q321 354 306 378T239 403Q200 403 157 395T85 374L54 471ZM219 99Q258 99 281 116T315 154V219Q284 222 256 220T205 211 170 191 157 158Q157 130 173 115T219 99ZM311 566H239L115 690V720H251L311 566Z" glyph-name="agrave" horiz-adv-x="496" unicode="&#xe0;"/><glyph d="M54 471Q94 489 149 499T264 510Q316 510 351 498T406 462 435 407 444 335Q444 291 441 247T438 159 440 76 455-1H349L328 68H323Q303 37 268 15T176-8Q141-8 113 2T65 32 34 78 23 138Q23 184 43 215T102 266 194 293 314 298Q321 354 306 378T239 403Q200 403 157 395T85 374L54 471ZM219 99Q258 99 281 116T315 154V219Q284 222 256 220T205 211 170 191 157 158Q157 130 173 115T219 99ZM237 720H369V690L258 566H184L237 720Z" glyph-name="aacute" horiz-adv-x="496" unicode="&#xe1;"/><glyph d="M54 471Q94 489 149 499T264 510Q316 510 351 498T406 462 435 407 444 335Q444 291 441 247T438 159 440 76 455-1H349L328 68H323Q303 37 268 15T176-8Q141-8 113 2T65 32 34 78 23 138Q23 184 43 215T102 266 194 293 314 298Q321 354 306 378T239 403Q200 403 157 395T85 374L54 471ZM219 99Q258 99 281 116T315 154V219Q284 222 256 220T205 211 170 191 157 158Q157 130 173 115T219 99ZM216 732H302L413 550H310L271 616 254 665 237 616 192 550H93L216 732Z" glyph-name="acircumflex" horiz-adv-x="496" unicode="&#xe2;"/><glyph d="M54 471Q94 489 149 499T264 510Q316 510 351 498T406 462 435 407 444 335Q444 291 441 247T438 159 440 76 455-1H349L328 68H323Q303 37 268 15T176-8Q141-8 113 2T65 32 34 78 23 138Q23 184 43 215T102 266 194 293 314 298Q321 354 306 378T239 403Q200 403 157 395T85 374L54 471ZM219 99Q258 99 281 116T315 154V219Q284 222 256 220T205 211 170 191 157 158Q157 130 173 115T219 99ZM86 658Q117 695 143 709T194 723Q214 723 232 716T269 701 304 686 339 679Q353 679 367 685T398 706L418 636Q389 604 365 592T317 580Q297 580 278 586T241 601 205 615 169 622Q154 622 138 616T105 593L86 658Z" glyph-name="atilde" horiz-adv-x="496" unicode="&#xe3;"/><glyph d="M54 471Q94 489 149 499T264 510Q316 510 351 498T406 462 435 407 444 335Q444 291 441 247T438 159 440 76 455-1H349L328 68H323Q303 37 268 15T176-8Q141-8 113 2T65 32 34 78 23 138Q23 184 43 215T102 266 194 293 314 298Q321 354 306 378T239 403Q200 403 157 395T85 374L54 471ZM219 99Q258 99 281 116T315 154V219Q284 222 256 220T205 211 170 191 157 158Q157 130 173 115T219 99ZM75 651Q75 683 94 702T146 721Q178 721 196 702T215 651Q215 621 197 602T146 583Q114 583 95 602T75 651ZM294 651Q294 683 312 702T363 721Q395 721 414 702T434 651Q434 621 415 602T363 583Q331 583 313 602T294 651Z" glyph-name="adieresis" horiz-adv-x="496" unicode="&#xe4;"/><glyph d="M54 471Q94 489 149 499T264 510Q316 510 351 498T406 462 435 407 444 335Q444 291 441 247T438 159 440 76 455-1H349L328 68H323Q303 37 268 15T176-8Q141-8 113 2T65 32 34 78 23 138Q23 184 43 215T102 266 194 293 314 298Q321 354 306 378T239 403Q200 403 157 395T85 374L54 471ZM219 99Q258 99 281 116T315 154V219Q284 222 256 220T205 211 170 191 157 158Q157 130 173 115T219 99ZM144 647Q144 689 172 716T255 743Q306 743 336 719T366 647Q366 608 337 581T255 553Q202 553 173 578T144 647ZM216 647Q216 631 228 623T255 614Q272 614 283 622T294 647Q294 664 283 672T255 681Q240 681 228 673T216 647Z" glyph-name="aring" horiz-adv-x="496" unicode="&#xe5;"/><glyph d="M219 99Q258 99 281 116T315 154V219Q284 222 256 220T205 211 170 191 157 158Q157 130 173 115T219 99ZM350 76Q323 42 284 17T176-8Q141-8 113 2T65 32 34 78 23 138Q23 184 43 215T102 266 193 293 313 298Q320 354 306 378T239 403Q200 403 160 393T88 367L54 461Q92 481 148 495T264 510Q316 510 347 497T398 456Q423 484 463 499T550 514Q588 514 624 504T688 471 733 409 750 312Q750 291 748 268T740 217H439Q443 154 472 122T568 90Q609 90 641 102T691 128L734 43Q704 19 653 3T543-14Q479-14 431 9T355 76H350ZM548 410Q497 410 473 380T443 298H630Q633 352 613 381T548 410Z" glyph-name="ae" horiz-adv-x="785" unicode="&#xe6;"/><glyph d="M411 31Q388 14 359 4T296-11L278-43Q319-47 342-64T366-118Q366-141 355-158T323-186 276-204 218-210Q187-210 154-204L163-156Q170-157 176-157T187-157Q225-157 236-148T247-127Q247-99 161-95L211-11Q162-5 128 16T73 71 43 150 33 250Q33 377 90 445T256 514Q311 514 344 505T405 482L374 376Q351 387 329 393T277 399Q223 399 195 364T167 250Q167 218 174 191T195 144 231 113 284 101Q317 101 340 109T381 130L411 31Z" glyph-name="ccedilla" horiz-adv-x="433" unicode="&#xe7;"/><glyph d="M457 43Q427 19 376 3T266-14Q145-14 89 56T33 250Q33 382 96 448T273 514Q311 514 347 504T411 471 456 409 473 312Q473 291 471 267T463 217H163Q166 154 195 122T291 90Q332 90 364 102T414 128L457 43ZM271 410Q220 410 196 380T166 298H352Q356 352 336 381T271 410ZM329 566H257L133 690V720H269L329 566Z" glyph-name="egrave" horiz-adv-x="508" unicode="&#xe8;"/><glyph d="M457 43Q427 19 376 3T266-14Q145-14 89 56T33 250Q33 382 96 448T273 514Q311 514 347 504T411 471 456 409 473 312Q473 291 471 267T463 217H163Q166 154 195 122T291 90Q332 90 364 102T414 128L457 43ZM271 410Q220 410 196 380T166 298H352Q356 352 336 381T271 410ZM274 720H406V690L295 566H221L274 720Z" glyph-name="eacute" horiz-adv-x="508" unicode="&#xe9;"/><glyph d="M457 43Q427 19 376 3T266-14Q145-14 89 56T33 250Q33 382 96 448T273 514Q311 514 347 504T411 471 456 409 473 312Q473 291 471 267T463 217H163Q166 154 195 122T291 90Q332 90 364 102T414 128L457 43ZM271 410Q220 410 196 380T166 298H352Q356 352 336 381T271 410ZM221 732H307L418 550H315L276 616 259 665 242 616 197 550H98L221 732Z" glyph-name="ecircumflex" horiz-adv-x="508" unicode="&#xea;"/><glyph d="M457 43Q427 19 376 3T266-14Q145-14 89 56T33 250Q33 382 96 448T273 514Q311 514 347 504T411 471 456 409 473 312Q473 291 471 267T463 217H163Q166 154 195 122T291 90Q332 90 364 102T414 128L457 43ZM271 410Q220 410 196 380T166 298H352Q356 352 336 381T271 410ZM82 651Q82 683 101 702T153 721Q185 721 203 702T222 651Q222 621 204 602T153 583Q121 583 102 602T82 651ZM301 651Q301 683 319 702T370 721Q402 721 421 702T441 651Q441 621 422 602T370 583Q338 583 320 602T301 651Z" glyph-name="edieresis" horiz-adv-x="508" unicode="&#xeb;"/><glyph d="M70 500H200V0H70V500ZM450 566H378L254 690V720H390L450 566Z" glyph-name="igrave" horiz-adv-x="269" unicode="&#xec;"/><glyph d="M70 500H200V0H70V500ZM124 720H256V690L145 566H71L124 720Z" glyph-name="iacute" horiz-adv-x="269" unicode="&#xed;"/><glyph d="M70 500H200V0H70V500ZM349 732H435L546 550H443L404 616 387 665 370 616 325 550H226L349 732Z" glyph-name="icircumflex" horiz-adv-x="269" unicode="&#xee;"/><glyph d="M70 500H200V0H70V500ZM211 651Q211 683 230 702T282 721Q314 721 332 702T351 651Q351 621 333 602T282 583Q250 583 231 602T211 651ZM430 651Q430 683 448 702T499 721Q531 721 550 702T570 651Q570 621 551 602T499 583Q467 583 449 602T430 651Z" glyph-name="idieresis" horiz-adv-x="269" unicode="&#xef;"/><glyph d="M163 243Q163 171 196 134T284 97Q336 97 369 141T402 280Q402 293 401 314T395 347Q379 370 347 379T285 389Q225 389 194 348T163 243ZM197 584 241 614Q207 629 172 635L224 715Q249 708 281 695 304 686 328 673L381 709 423 654 390 631Q402 622 413 611 445 581 470 538T510 436 526 302Q526 221 508 162T456 63 377 5 276-14Q217-14 172 5T97 58 52 140 37 245Q37 299 54 345T101 425 175 479 269 499Q307 499 339 489T392 458Q380 494 358 524 336 553 308 575L240 529 197 584Z" glyph-name="eth" horiz-adv-x="563" unicode="&#xf0;"/><glyph d="M363 0V284Q363 345 346 372T286 399Q249 399 224 378T187 324V0H57V500H160L175 434H179Q202 466 240 490T338 514Q375 514 404 504T453 471 483 409 493 311V0H363ZM107 658Q138 695 164 709T215 723Q235 723 253 716T290 701 325 686 360 679Q374 679 388 685T419 706L439 636Q410 604 386 592T338 580Q318 580 299 586T262 601 226 615 190 622Q175 622 159 616T126 593L107 658Z" glyph-name="ntilde" horiz-adv-x="545" unicode="&#xf1;"/><glyph d="M33 250Q33 377 95 445T269 514Q329 514 373 495T446 442 489 358 504 250Q504 123 443 55T269-14Q209-14 165 5T92 58 48 142 33 250ZM167 250Q167 217 173 189T191 140 222 108 269 96Q320 96 345 133T370 250Q370 319 347 361T269 404Q221 404 194 368T167 250ZM331 566H259L135 690V720H271L331 566Z" glyph-name="ograve" unicode="&#xf2;"/><glyph d="M33 250Q33 377 95 445T269 514Q329 514 373 495T446 442 489 358 504 250Q504 123 443 55T269-14Q209-14 165 5T92 58 48 142 33 250ZM167 250Q167 217 173 189T191 140 222 108 269 96Q320 96 345 133T370 250Q370 319 347 361T269 404Q221 404 194 368T167 250ZM275 720H407V690L296 566H222L275 720Z" glyph-name="oacute" unicode="&#xf3;"/><glyph d="M33 250Q33 377 95 445T269 514Q329 514 373 495T446 442 489 358 504 250Q504 123 443 55T269-14Q209-14 165 5T92 58 48 142 33 250ZM167 250Q167 217 173 189T191 140 222 108 269 96Q320 96 345 133T370 250Q370 319 347 361T269 404Q221 404 194 368T167 250ZM231 732H317L428 550H325L286 616 269 665 252 616 207 550H108L231 732Z" glyph-name="ocircumflex" unicode="&#xf4;"/><glyph d="M33 250Q33 377 95 445T269 514Q329 514 373 495T446 442 489 358 504 250Q504 123 443 55T269-14Q209-14 165 5T92 58 48 142 33 250ZM167 250Q167 217 173 189T191 140 222 108 269 96Q320 96 345 133T370 250Q370 319 347 361T269 404Q221 404 194 368T167 250ZM104 658Q135 695 161 709T212 723Q232 723 250 716T287 701 322 686 357 679Q371 679 385 685T416 706L436 636Q407 604 383 592T335 580Q315 580 296 586T259 601 223 615 187 622Q172 622 156 616T123 593L104 658Z" glyph-name="otilde" unicode="&#xf5;"/><glyph d="M33 250Q33 377 95 445T269 514Q329 514 373 495T446 442 489 358 504 250Q504 123 443 55T269-14Q209-14 165 5T92 58 48 142 33 250ZM167 250Q167 217 173 189T191 140 222 108 269 96Q320 96 345 133T370 250Q370 319 347 361T269 404Q221 404 194 368T167 250ZM88 651Q88 683 107 702T159 721Q191 721 209 702T228 651Q228 621 210 602T159 583Q127 583 108 602T88 651ZM307 651Q307 683 325 702T376 721Q408 721 427 702T447 651Q447 621 428 602T376 583Q344 583 326 602T307 651Z" glyph-name="odieresis" unicode="&#xf6;"/><glyph d="M43 394H485V282H43V394ZM184 532Q184 567 206 587T264 608Q302 608 324 588T346 532Q346 497 324 476T264 455Q228 455 206 476T184 532ZM184 145Q184 180 206 200T264 221Q302 221 324 201T346 145Q346 110 324 89T264 68Q228 68 206 89T184 145Z" glyph-name="divide" horiz-adv-x="527" unicode="&#xf7;"/><glyph d="M33 250Q33 377 94 445T268 514Q300 514 327 509T377 492L401 526 481 467 454 429Q479 395 491 350T503 250Q503 123 442 55T268-14Q234-14 206-8T153 10L128-24 45 36 76 79Q54 112 44 155T33 250ZM369 250Q369 287 361 321L212 114Q234 96 268 96 319 96 344 133T369 250ZM167 250Q167 215 173 185L320 389Q299 404 268 404 220 404 194 368T167 250Z" glyph-name="oslash" horiz-adv-x="536" unicode="&#xf8;"/><glyph d="M182 500V216Q182 155 196 128T253 101Q290 101 314 123T351 177V500H481V152Q481 111 485 72T497 0H399L376 74H372Q349 36 308 11T211-14Q173-14 143-4T93 29 63 91 52 189V500H182ZM318 566H246L122 690V720H258L318 566Z" glyph-name="ugrave" horiz-adv-x="538" unicode="&#xf9;"/><glyph d="M182 500V216Q182 155 196 128T253 101Q290 101 314 123T351 177V500H481V152Q481 111 485 72T497 0H399L376 74H372Q349 36 308 11T211-14Q173-14 143-4T93 29 63 91 52 189V500H182ZM261 720H393V690L282 566H208L261 720Z" glyph-name="uacute" horiz-adv-x="538" unicode="&#xfa;"/><glyph d="M182 500V216Q182 155 196 128T253 101Q290 101 314 123T351 177V500H481V152Q481 111 485 72T497 0H399L376 74H372Q349 36 308 11T211-14Q173-14 143-4T93 29 63 91 52 189V500H182ZM232 732H318L429 550H326L287 616 270 665 253 616 208 550H109L232 732Z" glyph-name="ucircumflex" horiz-adv-x="538" unicode="&#xfb;"/><glyph d="M182 500V216Q182 155 196 128T253 101Q290 101 314 123T351 177V500H481V152Q481 111 485 72T497 0H399L376 74H372Q349 36 308 11T211-14Q173-14 143-4T93 29 63 91 52 189V500H182ZM88 651Q88 683 107 702T159 721Q191 721 209 702T228 651Q228 621 210 602T159 583Q127 583 108 602T88 651ZM307 651Q307 683 325 702T376 721Q408 721 427 702T447 651Q447 621 428 602T376 583Q344 583 326 602T307 651Z" glyph-name="udieresis" horiz-adv-x="538" unicode="&#xfc;"/><glyph d="M239 219 257 141H263L276 220 352 500H486L334 49Q315-7 298-53T259-134 213-186 152-205Q100-205 69-188L93-84Q108-90 123-90 146-90 167-71T200 0L-9 500H147L239 219ZM254 720H386V690L275 566H201L254 720Z" glyph-name="yacute" horiz-adv-x="478" unicode="&#xfd;"/><glyph d="M57 700H187V457H191Q212 483 241 498T319 514Q413 514 460 455T507 263Q507 199 492 148T448 60 376 5 278-14Q247-14 227-10T187 5V-200H57V700ZM280 404Q244 404 222 385T187 328V120Q201 109 217 103T261 96Q317 96 345 135T373 266Q373 332 351 368T280 404Z" glyph-name="thorn" horiz-adv-x="540" unicode="&#xfe;"/><glyph d="M239 219 257 141H263L276 220 352 500H486L334 49Q315-7 298-53T259-134 213-186 152-205Q100-205 69-188L93-84Q108-90 123-90 146-90 167-71T200 0L-9 500H147L239 219ZM66 651Q66 683 85 702T137 721Q169 721 187 702T206 651Q206 621 188 602T137 583Q105 583 86 602T66 651ZM285 651Q285 683 303 702T354 721Q386 721 405 702T425 651Q425 621 406 602T354 583Q322 583 304 602T285 651Z" glyph-name="ydieresis" horiz-adv-x="478" unicode="&#xff;"/><glyph d="M109 346H551V231H109V346Z" glyph-name="endash" horiz-adv-x="660" unicode="&#x2013;"/><glyph d="M109 346H711V231H109V346Z" glyph-name="emdash" horiz-adv-x="820" unicode="&#x2014;"/><glyph d="M185 618Q185 589 166 572T117 554Q80 554 59 577T38 640Q38 680 50 708T80 754 117 783 150 799L182 745Q162 737 148 720T132 682Q152 682 168 665T185 618Z" glyph-name="quoteleft" horiz-adv-x="223" unicode="&#x2018;"/><glyph d="M38 644Q38 673 57 691T107 709Q143 709 164 685T185 622Q185 582 173 554T143 508 106 479 73 463L40 518Q60 527 75 542T93 580Q73 579 56 595T38 644Z" glyph-name="quoteright" horiz-adv-x="223" unicode="&#x2019;"/><glyph d="M38 62Q38 91 57 109T107 127Q143 127 164 103T185 40Q185 0 173-28T143-74 106-103 73-119L40-64Q60-55 75-40T93-2Q73-3 56 13T38 62Z" glyph-name="quotesinglbase" horiz-adv-x="223" unicode="&#x201a;"/><glyph d="M358 618Q358 589 339 572T290 554Q253 554 232 577T211 640Q211 680 223 708T253 754 290 783 323 799L355 745Q335 737 321 720T305 682Q325 682 341 665T358 618ZM185 618Q185 589 166 572T117 554Q80 554 59 577T38 640Q38 680 50 708T80 754 117 783 150 799L182 745Q162 737 148 720T132 682Q152 682 168 665T185 618Z" glyph-name="quotedblleft" horiz-adv-x="396" unicode="&#x201c;"/><glyph d="M211 644Q211 673 230 691T280 709Q316 709 337 685T358 622Q358 582 346 554T316 508 279 479 246 463L213 518Q233 527 248 542T266 580Q246 579 229 595T211 644ZM38 644Q38 673 57 691T107 709Q143 709 164 685T185 622Q185 582 173 554T143 508 106 479 73 463L40 518Q60 527 75 542T93 580Q73 579 56 595T38 644Z" glyph-name="quotedblright" horiz-adv-x="396" unicode="&#x201d;"/><glyph d="M211 62Q211 91 230 109T280 127Q316 127 337 103T358 40Q358 0 346-28T316-74 279-103 246-119L213-64Q233-55 248-40T266-2Q246-3 229 13T211 62ZM38 62Q38 91 57 109T107 127Q143 127 164 103T185 40Q185 0 173-28T143-74 106-103 73-119L40-64Q60-55 75-40T93-2Q73-3 56 13T38 62Z" glyph-name="quotedblbase" horiz-adv-x="396" unicode="&#x201e;"/><glyph d="M73 311Q73 345 85 373T118 421 166 452 225 464Q257 464 285 454T333 424 366 376 378 311Q378 275 366 247T334 200 285 170 225 159Q194 159 167 169T118 199 85 247 73 311Z" glyph-name="bullet" horiz-adv-x="452" unicode="&#x2022;"/><glyph d="M29 259 189 489 264 427 181 301 133 260 181 224 272 102 195 38 29 259Z" glyph-name="guilsinglleft" horiz-adv-x="307" unicode="&#x2039;"/><glyph d="M278 268 118 38 42 99 126 226 174 267 126 303 34 426 112 489 278 268Z" glyph-name="guilsinglright" horiz-adv-x="307" unicode="&#x203a;"/></font>
</defs>
</svg>
